Закрыть ... [X]

Криминал фильмы 2018 под прицелом


Закрыть ... [X]

Под прицелом / Конец ствола / End of a Gun Год выпуска: 2016
Страна: США
Жанр: боевик, триллер, криминал
Продолжительность: 01:26:50
Перевод: Профессиональный многоголосый - [Лицензия / iTunes]
Субтитры: Английские

Режиссер: Киони Ваксман

rating

В ролях:

Стивен Сигал, Флорин Пьерсик мл., Джейд Ивен, Джейк Гродник, Джонатан Розенталь, Александр Нгуйен,

Описание:

Декер является бывшим агентом ФБР и еле-еле сводит концы с концами в качестве охранника центра безопасности. Его задача только «наблюдать и сообщать» о деятельности, и не принимать меры. Но когда он приходит мимо женщины Лизы, которую избивает её бойфренд, Декер вынужден убить разъяренного мужчину, чтобы спасти ее. Вместо поздравлений и благодарности, Декер уволен за его героизм и ему грозит уголовное обвинение.

Лиза, зная его положение, просит ей помочь украсть $ 2 млн спрятанные в машине своего приятеля, которую конфисковала полиция. Они успешно возвращают деньги, но это ставит их в ещё большую опасность, так как деньги принадлежат наркобарону. Он пытается вернуть себе деньги, для чего нанимает целый отряд. Между тем, полицейские полны решимости и так же ищут Декера, который вынужден обратиться к своим союзникам, чтобы сохранить деньги, Лизу, и выжить в масштабной перестрелке с приспешниками вора в законе.

Качество: BDRip 1080p
Формат: MKV

Видео: MPEG-4 AVC, 15.2 Mбит/с, 1920x1080, 23.976 кадр/с
Аудио#1: Русский (AC3, 6 ch, 384 Кбит/с)
Аудио#2: английский (AC3, 6 ch, 640 Кбит/с)

General
Уникальный идентификатор : 303574771882528653302059716968402783768 (0xE4625FD5979BB19C34705ABAA6CE0E18)
Полное имя : D:\ФИЛЬМЫ\END_FA_GUN_2016_BDRIP_1080p -BLUEBIRD.mkv
Формат : Matroska
Версия формата : Version 4 / Version 2
Размер файла : 9.87 GiB
Продолжительность : 1 h 26 min
Общий поток : 16.3 Mb/s
Название фильма : END_OF_A_GUN_2016_BDRIP_1080p-BLUEBIRD
Дата кодирования : UTC 2018-02-20 09:20:34
Программа кодирования : mkvmerge v19.0.0 ('Brave Captain') 64-bit
Библиотека кодирования : libebml v1.3.5 + libmatroska v1.4.8
Attachments : END&GUN.jpg

Video
Идентификатор : 1
Формат : AVC
Формат/Информация : Advanced Video Codec
Профиль формата : High@L4.1
Настройки формата : CABAC / 4 Ref Frames
Параметр CABAC формата : Yes
Параметр RefFrames формата : 4 frames
Идентификатор кодека : V_MPEG4/ISO/AVC
Продолжительность : 1 h 26 min
Битрейт : 15.2 Mb/s
Ширина : 1 920 pixels
Высота : 1 080 pixels
Соотношение сторон : 16:9
Режим частоты кадров : Constant
Частота кадров : 23.976 (24000/1001) FPS
Цветовое пространство : YUV
Субдискретизация насыщенности : 4:2:0
Битовая глубина : 8 bits
Тип развёртки : Progressive
Бит/(ПикселиКадры) : 0.307
Размер потока : 9.25 GiB (94%)
Заголовок : -TayTO
Библиотека кодирования : x264 core 148 r2744kMod b97ae06
Настройки программы : cabac=1 / ref=4 / deblock=1:-3:-3 / analyse=0x3:0x133 / me=tesa / subme=11 / psy=1 / fade_compensate=0.00 / psy_rd=1.00:0.00 / mixed_ref=1 / me_range=32 / chroma_me=1 / trellis=2 / 8x8dct=1 / cqm=0 / deadzone=21,11 / fast_pskip=0 / chroma_qp_offset=-2 / threads=18 / lookahead_threads=3 / sliced_threads=0 / nr=0 / decimate=0 / interlaced=0 / bluray_compat=0 / constrained_intra=0 / bframes=7 / b_pyramid=2 / b_adapt=2 / b_bias=0 / direct=3 / weightb=1 / open_gop=0 / weightp=2 / keyint=250 / keyint_min=24 / scenecut=40 / intra_refresh=0 / rc_lookahead=250 / rc=crf / mbtree=0 / crf=16.5000 / qcomp=0.60 / qpmin=0 / qpmax=69 / qpstep=4 / vbv_maxrate=62500 / vbv_bufsize=78125 / crf_max=0.0 / nal_hrd=none / filler=0 / ip_ratio=1.30 / pb_ratio=1.20 / aq=3:0.80 / zones=33,500,crf=12.5/798,938,crf=12.5/1117,1282,crf=14.5/10417,10497,crf=14/38980,39080,crf=14/45859,45930,crf=14/56768,57745,crf=14/81431,81517,crf=14/94130,94380,crf=14/120435,120622,crf=14
Язык : English
Default : Yes
Forced : No

Audio #1
Идентификатор : 2
Формат : AC-3
Формат/Информация : Audio Coding 3
Идентификатор кодека : A_AC3
Продолжительность : 1 h 26 min
Вид битрейта : Constant
Битрейт : 384 kb/s
Каналы : 6 channels
Расположение каналов : Front: L C R, Side: L R, LFE
Частота : 48.0 kHz
Частота кадров : 31.250 FPS (1536 SPF)
Битовая глубина : 16 bits
Метод сжатия : Lossy
Размер потока : 238 MiB (2%)
Заголовок : [MVO] DD 5.1 @ 384 kbps (iTunes)
Язык : Russian
ServiceKind/String : Complete Main
Default : Yes
Forced : No

Audio #2
Идентификатор : 3
Формат : AC-3
Формат/Информация : Audio Coding 3
Идентификатор кодека : A_AC3
Продолжительность : 1 h 26 min
Вид битрейта : Constant
Битрейт : 640 kb/s
Каналы : 6 channels
Расположение каналов : Front: L C R, Side: L R, LFE
Частота : 48.0 kHz
Частота кадров : 31.250 FPS (1536 SPF)
Битовая глубина : 16 bits
Метод сжатия : Lossy
Размер потока : 397 MiB (4%)
Язык : English
ServiceKind/String : Complete Main
Default : No
Forced : No

Text #1
Идентификатор : 4
Формат : UTF-8
Идентификатор кодека : S_TEXT/UTF8
Идентификатор кодека/Информация : UTF-8 Plain Text
Продолжительность : 1 h 22 min
Битрейт : 46 b/s
ElementCount : 879
Размер потока : 28.2 KiB (0%)
Заголовок : English
Язык : English
Default : No
Forced : No

Text #2
Идентификатор : 5
Формат : UTF-8
Идентификатор кодека : S_TEXT/UTF8
Идентификатор кодека/Информация : UTF-8 Plain Text
Продолжительность : 1 h 23 min
Битрейт : 51 b/s
ElementCount : 992
Размер потока : 31.0 KiB (0%)
Заголовок : English(SDH)
Язык : English
Default : No
Forced : No

Menu
00:00:00.000 : en:Chapter 1
00:04:45.452 : en:Chapter 2
00:10:20.703 : en:Chapter 3
00:14:54.644 : en:Chapter 4
00:19:59.698 : en:Chapter 5
00:26:02.478 : en:Chapter 6
00:31:52.702 : en:Chapter 7
00:37:40.675 : en:Chapter 8
00:42:00.017 : en:Chapter 9
00:46:22.279 : en:Chapter 10
00:51:52.276 : en:Chapter 11
00:56:36.351 : en:Chapter 12
01:01:37.861 : en:Chapter 13
01:05:14.494 : en:Chapter 14
01:09:14.859 : en:Chapter 15
01:21:33.013 : en:Chapter 16


Источник: https://pb.wtf/topic/273664/


Поделись с друзьями



Рекомендуем посмотреть ещё:



Похожие новости


Темный замок фильм 2018
Новый ссангйонг рекстон 2018
Новая лада в новом кузове 2018 фото цена видео
Когда выйдет побег 2018
Фильмы 2018 года про ментов
Сериалы 2018 мультфильмы
Когда откроется навигация в 2018 для маломерных судов
Турецкий сериал на русском языке все серии 2018 года


Криминал фильмы 2018 под прицелом
Криминал фильмы 2018 под прицелом


Под прицелом. 2018 боевик, триллер
Под прицелом (2011) смотреть онлайн в хорошем качестве HD 720



ШОКИРУЮЩИЕ НОВОСТИ